首页 二次世界 [MagicStar] 家庭教师寅子 最终回 / 家庭教師のトラコ EP10 END [WEBDL] [1080p] [HULU]【生】【附日字】

[MagicStar] 家庭教师寅子 最终回 / 家庭教師のトラコ EP10 END [WEBDL] [1080p] [HULU]【生】【附日字】

HD 1080p from HULU JAPAN. General Unique ID : 51643994392747643773552493848888754979 (0x26…

HD 1080p from HULU JAPAN.

General Unique ID                      : 51643994392747643773552493848888754979 (0x26DA4582A77E1F5ABC3277339B6E4323) Complete name                  : Kateikyoushi.no.Torako.EP10.1080p.HULU.WEB-DL.AAC2.0.H.264-MagicStar.mkv Format                         : Matroska Format version                 : Version 4 File size                      : 1.46 GiB Duration                       : 51 min 15 s Overall bit rate               : 4 070 kb/s Encoded date                   : UTC 2022-09-25 03:42:13 Writing application            : mkvmerge v50.0.0 ('Awakenings') 64-bit Writing library                : libebml v1.4.0 + libmatroska v1.6.2 Cover                          : Yes Attachments                    : cover.png  Video ID                             : 1 Format                         : AVC Format/Info                    : Advanced Video Codec Format profile                 : [email protected] Format settings                : CABAC / 4 Ref Frames Format settings, CABAC         : Yes Format settings, ReFrames      : 4 frames Codec ID                       : V_MPEG4/ISO/AVC Duration                       : 51 min 15 s Bit rate                       : 3 942 kb/s Width                          : 1 920 pixels Height                         : 1 080 pixels Display aspect ratio           : 16:9 Frame rate mode                : Constant Frame rate                     : 29.970 (29970/1000) FPS Original frame rate            : 29.970 (30000/1001) FPS Color space                    : YUV Chroma subsampling             : 4:2:0 Bit depth                      : 8 bits Scan type                      : Progressive Bits/(Pixel*Frame)             : 0.063 Stream size                    : 1.41 GiB (97%) Default                        : Yes Forced                         : No Color range                    : Limited Color primaries                : BT.709 Transfer characteristics       : BT.709 Matrix coefficients            : BT.709  Audio ID                             : 2 Format                         : AAC LC Format/Info                    : Advanced Audio Codec Low Complexity Codec ID                       : A_AAC-2 Duration                       : 51 min 15 s Bit rate                       : 125 kb/s Channel(s)                     : 2 channels Channel layout                 : L R Sampling rate                  : 48.0 kHz Frame rate                     : 46.875 FPS (1024 SPF) Compression mode               : Lossy Stream size                    : 46.0 MiB (3%) Language                       : Japanese Default                        : Yes Forced                         : No

免责声明:文章内容不代表本站立场,本站不对其内容的真实性、完整性、准确性给予任何担保、暗示和承诺,仅供读者参考,文章版权归原作者所有。如本文内容影响到您的合法权益(内容、图片等),请及时联系本站(shuuder@qq.com),我们会及时删除处理。

作者: 萌世界

为您推荐

《大多数》网店商品利润率一览

《大多数》网店商品利润率一览

第1页: 《大多数》中网店能够进货的商品种类很多,并且利润率各不相同,那么怎样进货才能提高收益呢,下面请看“西凉叶轻眉”...
《宝可梦朱紫》轰鸣月捕捉地点分享

《宝可梦朱紫》轰鸣月捕捉地点分享

第1页: 《宝可梦朱紫》中轰鸣月是一直非常帅气的宝可梦,很多玩家想要知道它在哪里能够捕捉,下面请看“MAGE穿着熊”带来...
《大多数》女角色爱好一览

《大多数》女角色爱好一览

第1页: 《大多数》中各个女角色有着自己的生活习惯,想要知道她们兴趣爱好的玩家请看下面“天涯白不白”带来的《大多数》可攻...

动作新游《匹诺曹的谎言》新实机演示!魂味太浓了!

  巴哈姆特公开了近期在韩国 G-Star 2022 游戏展中,提供试玩的类魂动作新游《匹诺曹的谎言》的实机演示。此次试...

《暗邪西部》值得入手吗?游戏评测分享

  暗邪西部是一款吸血鬼题材的第三人称射击游戏,现已正式上线了。很多小伙伴可能还不清楚这款游戏值不值得入手吧,今天小编给...
返回顶部